#TITLE:The legend of MAX;
#SUBTITLE:;
#ARTIST:;
#TITLETRANSLIT:;
#SUBTITLETRANSLIT:;
#ARTISTTRANSLIT:ZZ;
#CREDIT:;
#BANNER:The legend of MAX vROFL-bn.png;
#BACKGROUND:The legend of MAX vROFL-bg.png;
#LYRICSPATH:;
#CDTITLE:!konamiTitle.png;
#MUSIC:The legend of MAX.mp3;
#OFFSET:-0.275;
#SAMPLESTART:45.320;
#SAMPLELENGTH:12.000;
#SELECTABLE:YES;
#BPMS:0.000=333.000;
#STOPS:;
#BGCHANGES:;
// cache tags:
#FIRSTBEAT:0.000;
#LASTBEAT:504.000;
#SONGFILENAME:Songs/Music V.I.P ^_^/The legend of MAX/The legend of MAX.sm;
#HASMUSIC:1;
#HASBANNER:1;
#MUSICLENGTH:94.066;
// end cache tags

//---------------dance-single - ----------------
#NOTES:
     dance-single:
     :
     Challenge:
     1:
     1.000,1.000,1.000,1.000,1.000,2890.000,1328.000,2551.000,0.000,1644.000:
1000
0100
0010
0002
1003
0200
0320
2031
3122
2033
3220
2332
3223
2332
0223
3332
,
1223
2332
0203
3312
2203
3322
2233
3320
2231
3312
2203
3322
2033
0200
3302
2203
,
3320
2032
3223
0332
1223
0332
2023
3032
2203
3322
2033
3022
2033
3022
2030
0223
,
3332
1223
0302
2233
3302
2223
3302
0033
0000
0000
0000
0000
0000
0000
1000
0100
,
0010
0001
1000
0100
0010
0001
1000
0100
0010
0001
1000
0100
0010
0001
1000
0100
,
0010
0001
0001
0010
0100
1000
0001
0010
0100
1000
0001
0010
0100
1000
0001
0010
,
0100
0000
0000
0000
0000
0000
0000
0000
0000
0000
0000
0000
1000
0000
0000
0000
0000
0000
0000
0000
0000
0000
0000
0000
0001
0000
0000
0000
0000
0000
0000
0000
0000
0000
0000
0000
0010
0000
0000
0000
0000
0000
0000
0000
0000
0000
0000
0000
0100
0000
0000
0000
0000
0000
0000
0000
0000
0000
0000
0000
1000
0000
0000
0000
0100
0000
0000
0000
0000
0000
0000
0000
0010
0000
0000
0000
0000
0000
0000
0000
0002
0000
0000
0000
0000
0000
0000
0000
2003
0000
0000
0000
0000
0000
0000
0000
3100
0000
0000
0000
0000
0000
0000
0000
0010
0000
0000
0000
0000
0000
0000
0000
0001
0000
0000
0000
0000
0000
0000
0000
0001
0000
0000
0000
0000
0000
0000
0000
0010
0000
0000
0000
0000
0000
0000
0000
0100
0000
0000
0000
0000
0000
0000
0000
1000
0000
0000
0000
0000
0000
0000
0000
0001
0000
0000
0000
0000
0000
0000
0000
0010
0000
0000
0000
0000
0000
0000
0000
0100
0000
0000
0000
0000
0000
0000
0000
1000
0000
0000
0000
1000
0000
0000
0000
0000
0000
0100
0000
0000
0000
0000
0000
,
0020
0031
0001
0010
0100
1000
1000
0100
0010
0001
0001
0010
0100
1000
1000
0100
0010
0001
0001
0001
0001
0001
0001
0001
0010
0010
0010
0010
0010
0010
0010
0100
,
0100
0000
0100
0000
0100
0000
0100
0000
0100
0000
0100
0000
0100
0000
1000
0000
1000
0000
1000
0000
1000
0000
1000
0000
1000
0000
1000
0000
1000
0100
0010
0001
1000
0100
0010
0001
1000
0100
0010
0001
1000
0100
0010
0001
1000
0100
0010
0001
1000
0100
0010
0001
1000
0100
0010
0001
1000
0100
0010
0001
1000
0100
0010
0001
,
1000
0000
0000
0100
0000
0000
0010
0000
0000
0001
0000
0000
0000
0000
0000
0000
1000
0000
0000
0000
0000
0000
0000
0000
0100
0000
0000
0000
0000
0000
0000
0000
1110
0000
0000
0000
0000
0000
0000
0000
0001
0000
0000
0000
0000
0000
0000
0000
0010
0000
0000
0000
0000
0000
0000
0000
0111
0000
0000
0000
0000
0000
0000
0000
1000
0000
0000
0000
0000
0000
0000
0000
0100
0000
0000
0000
0000
0000
0000
0000
1111
0000
0000
0000
0000
0000
0000
0000
0001
0000
0000
0000
0000
0000
0000
0000
0010
0000
0000
0000
0000
0000
0000
0000
1111
0000
0000
0000
0000
0000
0000
0000
0100
0000
0000
0000
0000
0000
0000
0000
0010
0000
0000
0000
0000
0000
0000
0000
1111
0000
0000
0000
0000
0000
0000
0000
0110
0000
0000
0000
0000
0000
0000
0000
0001
0000
0000
0000
0000
0000
0000
0000
1111
0000
0000
0000
0000
0000
0000
0000
0001
0000
0000
0000
0000
0000
0000
0000
0010
0000
0000
0000
0000
0000
0000
0000
1110
0000
0000
0000
0000
0000
0000
0000
0001
0000
0000
0000
0000
0000
0000
0000
,
0100
0000
0000
0000
0000
0000
0000
0000
1110
0000
0000
0000
0000
0000
0000
0000
0001
0000
0000
0000
0000
0000
0000
0000
0100
0000
0000
0000
0000
0000
0000
0000
0010
0000
0000
0000
0000
0000
0000
0000
0111
0000
0000
0000
0000
0000
0000
0000
0100
0000
0000
0000
0000
0000
0000
0000
0010
0000
0000
0000
0000
0000
0000
0000
1111
0000
0000
0000
0000
0000
0000
0000
0100
0000
0000
0000
0000
0000
0000
0000
0010
0000
0000
0000
0000
0000
0000
0000
1001
0000
0000
0000
0000
0000
0000
0000
0100
0000
0000
0000
0000
0000
0000
0000
0010
0000
0000
0000
0000
0000
0000
0000
0111
0000
0000
0000
0000
0000
0000
0000
1000
0000
0000
0000
0000
0000
0000
0000
0100
0000
0000
0000
0000
0000
0000
0000
0010
0000
0000
0000
0000
0000
0000
0000
1111
0000
0000
0000
0000
0000
0000
0000
0010
0000
0000
0000
0000
0000
0000
0000
0100
0000
0000
0000
0000
0000
0000
0000
1111
0000
0000
0000
0000
0000
0100
0000
0000
0000
0000
0000
0010
0000
0000
0000
0000
0000
1111
0000
0000
0000
0000
0000
,
1000
0100
0010
1110
0001
0010
0100
0111
0001
0100
1110
0001
0100
0010
1000
1111
0001
0100
0010
1000
1111
1000
0100
0010
1111
0100
0010
1000
0100
1110
0001
0010
,
0100
0001
0111
0001
0100
0010
0100
1111
0001
0100
0010
1000
0010
2210
3302
2223
3300
2231
3300
0000
0100
2200
3300
0222
0333
2200
3302
2203
3302
2203
3302
2223
,
3332
0000
0000
0000
2200
0000
0003
0000
3320
0000
0000
0000
2030
0000
0000
0000
3122
0000
0000
0000
2030
0000
0000
0000
0203
0000
0000
0000
3302
0000
0000
0000
2223
0000
0000
0000
3302
0000
0000
0000
0033
0000
0000
0000
0022
0000
0000
0000
0033
0000
0000
0022
0000
0000
2233
0000
0000
3020
0000
0000
2330
0000
0000
3112
0000
0000
0203
0000
0000
0320
0000
0000
2032
0000
0000
0223
0000
0000
3332
0000
0000
2203
0000
0000
3322
0000
0000
2033
0000
0000
3220
0000
0000
2332
0000
0000
0203
0000
0000
3322
0000
0000
2233
0000
0000
3322
0000
0000
2033
0000
0000
3220
0000
0000
0332
0000
0000
0223
0000
0000
0332
0000
0000
2203
0000
0000
3022
0000
0000
0330
0000
0000
2223
0000
0000
3330
0000
0000
1220
0000
0000
0332
0000
0000
1223
0000
0000
0332
0000
0000
2203
0000
0000
3312
0000
0000
2223
0000
0000
3332
0000
0000
2223
0000
0000
3332
0000
0000
2003
0000
0000
3102
0000
0000
2223
0000
0000
3302
0000
0000
2233
0000
0000
3020
0000
0000
2332
0000
0000
3223
0000
0000
,
0330
0000
0000
1122
0000
0000
0030
0000
0000
0003
0000
0000
0000
0000
0000
0000
0000
0000
0000
0000
0000
0000
0000
0000
1000
0000
0000
0000
0000
0000
0000
0000
0100
0000
0000
0000
0000
0000
0000
0000
0010
0000
0000
0000
0000
0000
0000
0000
1000
0000
0000
0000
0000
0000
0000
0000
0100
0000
0000
0000
0000
0000
0000
0000
0010
0000
0000
0000
0000
0000
0000
0000
1000
0000
0000
0000
0000
0000
0000
0000
0100
0000
0000
0000
0000
0000
0000
0000
0010
0000
0000
0000
0000
0000
0000
0000
1000
0000
0000
0000
0000
0000
0000
0000
0100
0000
0000
0000
0000
0000
0000
0000
0010
0000
0000
0000
0000
0000
0000
0000
1000
0000
0000
0000
0000
0000
0000
0000
0100
0000
0000
0000
0000
0000
0000
0000
0010
0000
0000
0000
0000
0000
0000
0000
0001
0000
0000
0000
0000
0000
0000
0000
0010
0000
0000
0000
0000
0000
0000
0000
0100
0000
0000
0000
0000
0000
0000
0000
0001
0000
0000
0000
0000
0000
0000
0000
0020
0000
0000
0000
0000
0000
0000
0000
0130
0000
0000
0000
0000
0000
0000
0000
,
0001
0010
0100
0001
0010
0100
0001
0010
0100
0001
0010
0100
1000
0100
0001
1000
0100
0001
1000
0100
0001
1000
0100
0001
,
1000
0100
0001
1000
0100
0001
1000
0010
0001
1000
0010
0001
1000
0010
0001
1000
0010
0001
1000
0010
0001
1000
0010
0001
,
0001
1000
0100
0010
1000
0001
0100
0010
1000
0001
0100
0010
0010
0100
0001
1000
0010
0100
0001
1000
0010
0100
0001
1000
,
0010
0000
0000
0000
0000
0000
0000
0000
0100
0000
0000
0000
0000
0000
0000
0000
0001
0000
0000
0000
0000
0000
0000
0000
1000
0000
0000
0000
0000
0000
0102
0000
0000
0000
0000
0000
2223
0000
0000
0000
0000
0000
3332
0000
0000
0000
0000
0000
2223
0000
0000
0000
0000
0000
3332
0000
0000
0000
0000
0000
2203
0000
0000
0000
0000
0000
3302
0000
0000
0000
0000
0000
0003
0000
0000
0000
0000
0000
0000
0000
0000
0000
0000
0000
0120
0000
0000
0000
0000
0000
2032
0000
0000
0000
0000
0000
3223
0000
0000
0000
0000
0000
2331
0000
0000
0000
0000
0000
0220
0000
0000
0000
0000
0000
3332
0000
0000
0000
0000
0000
2203
0000
0000
0000
0000
0000
3020
0000
0000
0000
0000
0000
2332
0000
0000
0000
0000
0000
0223
0000
0000
0000
0000
0000
3332
0000
0000
0000
0000
0000
2203
0000
0000
0000
0000
0000
3020
0000
0000
0000
0000
0000
2332
0000
0000
0000
0000
0000
0223
0000
0000
0000
0000
0000
3332
0000
0000
0000
0000
0000
2203
0000
0000
0000
0000
0000
3322
0000
0000
0000
0000
0000
,
2233
3020
0332
0023
2032
0223
3331
0000
1101
2202
3303
1121
2030
3002
0003
0000
0002
0003
0000
0002
0003
0000
0002
0003
0002
2023
0032
0223
3332
0223
2331
3222
,
0330
0000
0000
0000
0000
0000
0223
0000
0000
0000
0000
0000
2332
0000
0000
0000
0000
0000
0203
0000
0000
0000
0000
0000
3312
0000
0000
0000
0000
0000
2203
0000
0000
0000
0000
0000
3312
0000
0000
0000
0000
0000
0223
0000
0000
0000
0000
0000
0331
0000
0000
0000
0000
0000
0220
0000
0000
0000
0000
0000
2332
0000
0000
0000
0000
0000
0203
0000
0000
0000
0000
0000
3320
0000
0000
0000
0000
0000
2032
0000
0000
0000
0000
0000
0223
0000
0000
0000
0000
0000
3332
0000
0000
0000
0000
0000
1223
0000
0000
0000
0000
0000
0302
0000
0000
0000
0000
0000
2233
0000
0000
0000
0000
0000
3322
0000
0000
0000
0000
0000
2033
0000
0000
0000
0000
0000
3220
0000
0000
0000
0000
0000
0332
0000
0000
0000
0000
0000
0223
0000
0000
0000
0000
0000
0332
0000
0000
0000
0000
0000
2003
0000
0000
0000
0000
0000
3122
0000
0000
0000
0000
0000
0030
0000
0000
0000
0000
0000
1223
0000
0000
0000
0332
0000
0000
0000
0223
0000
0000
0000
2332
0000
0000
0000
0000
0000
0000
0000
3023
0000
0000
0000
,
0032
0000
0000
0000
2203
0000
0000
0000
3302
0000
0000
0000
2203
0000
0000
0000
3312
0000
0000
0000
0203
0000
0000
0000
1312
0000
0000
0000
2223
0000
0000
0000
3332
0000
0000
0000
2203
0000
0000
3312
0000
0000
2203
0000
0000
3302
0000
0000
0223
0000
0000
0332
0000
0000
0003
0000
0000
0001
0000
0000
0000
0000
0000
1000
0000
0000
1200
0000
0000
0320
0000
0000
1130
0000
0000
0011
0000
0000
0202
0000
0000
0323
0000
0000
0030
0000
0000
1001
0000
0000
0011
0000
0000
2000
0000
0000
3022
0000
0000
2233
0000
0000
3322
0000
0000
2233
0000
0000
3022
0000
0000
0330
0000
0000
2223
0000
0000
3332
0000
0000
2203
0000
0000
3300
0000
0000
0000
0000
0000
0000
0000
0000
0000
0000
0000
1000
0000
0000
1002
0000
0000
2203
0000
0000
3310
0000
0000
0100
0000
0000
0100
0000
0000
0100
0000
0000
0100
0000
0000
0100
0000
0000
0100
0000
0000
0001
0000
0000
1000
0000
0000
0001
0000
0000
1000
0000
0000
0001
0000
0000
1000
0000
0000
0001
0000
0000
1000
0000
0000
0000
0000
0000
,
0100
0010
0100
0010
0100
0000
0000
0000
0000
0000
1000
0100
1000
0100
1000
0000
0000
0000
0000
0001
0010
0002
0013
0001
0000
0000
0000
0100
0010
0100
0010
0100
,
0000
1000
0100
0010
0001
0010
0100
1000
0001
0100
0010
1000
0001
0100
0010
0010
0010
0010
0010
0010
0010
0010
0010
0010
,
0010
0010
0010
0010
0010
0010
0100
0100
0100
0100
0100
0100
0100
0000
0100
0000
0000
0100
0100
0100
0100
0000
0000
1000
,
1000
1000
1000
1000
1000
1000
1000
1000
1000
1000
1000
1000
1000
1000
0000
0000
0000
0000
0000
0001
0000
0000
0000
0001
,
0001
0000
0000
0000
0000
0000
0000
0000
0001
0000
0000
0000
0000
0000
0000
0000
0001
0000
0000
0000
0000
0000
0000
0000
0001
0000
0000
0000
0000
0000
0000
0000
0000
0000
0000
0000
0000
0000
0000
0000
0001
0000
0000
0000
0000
0000
0000
0000
0001
0000
0000
0000
0000
0000
0000
0000
0001
0000
0000
0000
0000
0000
0000
0000
0001
0000
0000
0000
0000
0000
0000
0000
0001
0000
0000
0000
0000
0000
0000
0000
0001
0000
0000
0000
0000
0000
0000
0000
0001
0000
0000
0000
0000
0000
0000
0000
0001
0000
0000
0000
0000
0000
0000
0000
0110
0000
0000
0000
0000
0000
0000
0000
0110
0000
0000
0000
0000
0000
0000
0000
0110
0000
0000
0000
0000
0000
0000
0000
0110
0000
0000
0000
0000
0000
0000
0000
0110
0000
0000
0000
0000
0000
0000
0000
0110
0000
0000
0000
0000
0000
0000
0000
0110
0000
0000
0000
0000
0000
0000
0000
0110
0000
0000
0000
0000
0000
0000
0000
0110
0000
0000
0000
0000
0000
1001
0000
0110
0000
0000
0000
1001
0000
0000
0000
0110
0000
1001
0000
0000
0000
0000
0000
,
0110
0000
0000
0000
0000
0000
1001
0000
0110
0000
0000
0000
1001
0000
0000
0000
0110
0000
1001
0000
0000
0000
0000
0000
0110
0000
0000
0000
0000
0000
1001
0000
0110
0000
0000
0000
0110
0000
0000
0000
1001
0000
0110
0000
0000
0000
0000
0000
1001
0000
0000
0000
0000
0000
0110
0000
1001
0000
0000
0000
0110
0000
0000
0000
1001
0000
0110
0000
0000
0000
0000
0000
1001
0000
0000
0000
0000
0000
0110
0000
1001
0000
0000
0000
0110
0000
0000
0000
1001
0000
0110
0000
0000
0000
0000
0000
1001
0000
0000
0000
0000
0000
0110
0000
1001
0000
0000
0000
0110
0000
0000
0000
1001
0000
0110
0000
0000
0000
0000
0000
1001
0000
0000
0000
0000
0000
0110
0000
1001
0000
0000
0000
0110
0000
0000
0000
1001
0000
0110
0000
0000
0000
0000
0000
1001
0000
0000
0000
0000
0000
0110
0000
1001
0000
0000
0000
0110
0000
0000
0000
1001
0000
0110
0000
0000
0000
0000
0000
1001
0000
0000
0000
0000
0000
0110
0000
1001
0000
0000
0000
0110
0000
0000
0000
1001
0000
0110
0000
0000
0000
0000
0000
,
1001
0000
0000
0000
0000
0000
0000
0000
1000
2221
3332
2203
3302
0203
0302
0223
0332
2203
3020
2330
3222
2330
0203
3312
,
2203
3312
0203
0020
2330
3122
2230
3023
2330
3112
2220
3333
0010
0110
2200
3322
0033
0001
0001
0000
2022
3033
1111
1011
,
0000
0000
0000
0000
0000
0000
0000
0000
2222
0000
0000
0000
0000
0000
0000
0000
3333
0000
0000
0000
0000
0000
0000
0000
0000
0000
0000
0000
0000
0000
2222
0000
0000
0000
0000
0000
3333
0000
0000
0000
0000
0000
1111
0000
0000
0000
0000
0000
1000
0000
0000
0000
0000
0000
0000
0000
0000
0000
0000
0000
2222
0000
0000
0000
0000
0000
3333
0000
0000
0000
0000
0000
1000
0000
0000
0000
0000
0000
2202
0000
0000
0000
0000
0000
3323
0000
0000
0000
0000
0000
1131
0000
0000
0000
0000
0000
0111
0000
0000
0000
0000
0000
2200
0000
0000
0000
0000
0000
3320
0000
0000
0000
0000
0000
1130
0000
0000
0000
0000
0000
1000
0000
0000
0000
0000
0000
2222
0000
0000
0000
0000
0000
3333
0000
0000
0000
0000
0000
0111
0000
0000
0000
0000
0000
2222
0000
0000
0000
0000
0000
3333
0000
0000
0000
0000
0000
0000
0000
0000
0000
0000
0000
2220
0000
0000
0000
0000
0000
3332
0000
0000
0000
0000
0000
1113
0000
0000
0000
0000
0000
1011
0000
0000
0000
0000
0000
0202
0000
0000
0000
0000
0000
,
0303
1111
0222
0333
0111
0202
0323
0131
0202
0323
0131
1222
0333
0110
2222
3333
1222
0333
1111
1112
0003
0011
2222
3333
1111
2222
3333
0111
0222
0333
0111
0022
,
0033
0022
2233
3302
2203
3302
2203
3322
2030
0223
3332
2223
3332
2223
3332
0223
0330
0000
0002
0223
2000
3331
1120
0032
2223
3332
1223
0302
2233
3320
2032
3223
,
0332
1223
0332
0003
0000
1000
0100
0010
0001
1000
0100
0010
0001
1000
0100
0010
0001
1000
0100
0010
0001
1000
0100
0010
0001
1000
0100
0010
0001
0010
0100
1000
,
0001
0010
0100
1000
0001
0010
0100
1000
0001
0010
0100
1000
0001
0010
0100
1000
0001
0010
0100
1000
0001
0010
0100
1000
0002
0023
0130
1000
0001
0010
0100
1000
,
0001
0010
0100
1000
0001
0020
0130
1000
0001
0010
0100
1000
0001
0010
0200
1300
0100
0010
1000
0001
0100
0010
1000
0001
0100
0010
1000
0001
0100
0010
1000
0001
,
0100
0010
1000
0001
0100
0010
1000
0001
0100
0010
1000
0001
0100
0010
1000
0001
0100
0010
1000
0001
0100
0010
1000
0001
1111
1111
1111
1111
1111
1111
1111
1111
,
1111
1111
1111
1111
1111
1111
1111
1111
1111
0000
0000
0000
1000
0000
0200
0000
0310
0000
0002
0000
1003
0000
0200
0000
0310
0000
0001
0000
1000
0000
0100
0000
,
0010
0001
0010
0100
0002
1003
0010
0100
0001
1000
0010
0100
0001
1000
0010
0100
,
0001
1000
0010
0100
0001
1000
1000
0001
0100
0010
1000
0001
0100
0010
1000
0001
,
0100
0010
1000
0001
0100
0010
1000
0001
0100
0010
0010
0100
0001
1000
0010
0100
,
0001
1000
0010
1112
1223
0332
0003
2222
3333
0000
0000
0000
0000
0222
2333
3100
,
0020
2231
3322
2233
3320
2031
3000
2220
3330
1110
0002
0223
0330
1110
1020
0031
,
0000
0000
1000
0000
0000
1102
2203
3302
2223
3302
2233
3322
0030
0223
2332
0223
,
3330
2000
3022
2033
0220
3332
2223
3332
2203
3312
2203
3312
2000
3123
0032
0223
,
0332
2203
3302
2203
3020
0332
2203
3312
2203
3320
0032
1223
0332
2203
3322
2233
,
3320
2031
0220
3302
2233
3322
2030
0223
3332
0203
0020
2332
0223
3332
2003
3122
,
0000
2233
3322
2000
0233
3020
2302
0033
3022
0200
0003
0332
0003
1201
1321
0032
,
1223
0332
2203
3322
0033
0220
0332
0223
0332
0223
0302
2233
3000
0302
2223
3302
,
2233
3020
0332
1223
0330
0010
0000
2200
3320
1130
2000
3220
0330
1011
0000
1201
,
0320
1031
0220
1331
0220
1331
0220
1331
0220
1331
0220
1331
0220
1331
0220
1331
,
0220
1331
0110
0000
0000
1100
0011
1100
0011
1100
0011
1100
0011
0101
1010
0101
,
1010
0101
1010
0101
1010
0000
0000
0000
2222
0000
0000
0000
0000
0000
0000
0000
,
0000
0000
0000
0000
,
0000
0000
0000
0000
,
0000
0000
0000
0000
0000
0000
0000
0000
0000
0000
0000
0000
0000
0000
0000
0000
0000
0000
0000
0000
0000
0000
0000
0000
0000
0000
0000
0000
0000
0000
0000
0000
0000
0000
0000
0000
0000
0000
0000
0000
0000
0000
0000
0000
0000
0000
0000
0000
0003
0000
0000
0000
0000
0000
0001
0000
0000
0000
0000
0000
0001
0000
0000
0000
0000
0000
0001
0000
0001
0000
0000
0000
0001
0000
0000
0000
0001
0000
0000
0000
0001
0000
0000
0000
0001
0000
0000
0000
0001
0000
0000
0000
0001
0000
0000
0000
0001
0000
0000
0000
0001
0000
0000
0000
0001
0000
0000
0000
0001
0000
0000
0000
0001
0000
0000
0000
0001
0000
0000
0000
0001
0000
0000
0000
0001
0000
0000
0000
0001
0000
0000
0000
0001
0000
0000
0000
0000
0000
0000
0000
0002
0000
0000
0000
3333
0000
0000
0000
0000
0000
0000
0000
0000
0000
0000
0000
0000
0000
0000
0000
0000
0000
0000
0000
0000
0000
0000
0000
1000
0000
0000
0000
0000
0000
0000
0000
0000
0000
0000
0000
0000
0000
0000
0000
0000
0000
0000
0000
0000
0000
0000
0000
,
0100
0000
0000
0000
0000
0000
0000
0000
0000
0000
0000
0000
0000
0000
0000
0000
0000
0000
0000
0000
0000
0000
0000
0000
0010
0000
0000
0000
0000
0000
0000
0000
0000
0000
0000
0000
0000
0000
0000
0000
0000
0000
0000
0000
0000
0000
0000
0000
0001
0000
0000
0000
0000
0000
0000
0000
0000
0000
0000
0000
0000
0000
0000
0000
1000
0000
0000
0000
0000
0000
0000
0000
0000
0000
0000
0000
0000
0000
0000
0000
0100
0000
0000
0000
0000
0000
0000
0000
0000
0000
0000
0000
0000
0000
0000
0000
0010
0000
0000
0000
0000
0000
0000
0000
0000
0000
0000
0000
0000
0000
0000
0000
0001
0000
0000
0000
0000
0000
0000
0000
1000
0000
0000
0000
0000
0000
0000
0000
0000
0000
0000
0000
0100
0000
0000
0000
0000
0000
0000
0000
0000
0000
0000
0000
0010
0000
0000
0000
0000
0000
0000
0000
0000
0000
0000
0000
0001
0000
0000
0000
1000
0000
0000
0000
0000
0000
0000
0000
0100
0000
0000
0000
0000
0000
0000
0000
0010
0000
0000
0000
0000
0000
0000
0000
0001
0000
1000
0000
0000
0000
0000
0000
,
0100
0000
0000
0000
0000
0000
0010
0000
0000
0000
0000
0000
0001
0000
0000
0000
1000
0000
0000
0000
0100
0000
0000
0000
0010
0000
0000
0000
0001
0000
0000
0000
0000
1000
0000
0000
0100
0000
0000
0010
0000
0000
0001
0000
0000
1000
0000
0000
0100
0000
0000
0010
0000
0000
0001
0000
0000
1000
0000
0000
0100
0000
0000
0010
0000
0000
0001
0000
0000
1000
0000
0000
0100
0000
0000
0020
0000
0000
0031
0000
0000
1000
0000
0000
0100
0000
0000
0010
0000
0000
0001
0000
0000
2000
0000
0000
3100
0000
0000
0010
0000
0000
0001
0000
0000
2000
0000
0000
3200
0000
0000
0310
0000
0000
0001
0000
0000
1000
0000
0000
0100
0000
0000
0010
0000
0000
0001
0000
0000
1000
0000
0000
0100
0000
0000
0010
0000
0000
0001
0000
0000
2000
0000
0000
3100
0000
0000
0020
0000
0000
0032
0000
0000
1003
0000
0000
0100
0000
0000
0010
0000
0000
0001
0000
0000
1000
0000
0000
0100
0000
0000
0010
0000
0000
0001
0000
0000
1000
0000
0000
0100
0000
0000
0020
0000
0000
0031
0000
0000
0000
0000
0000
,
0000
0000
0000
0000
,
0000
0000
0000
0000
,
0000
0000
0000
0000
0000
0000
0000
0000
1111
1111
1111
1111
1111
1111
1111
1111
1111
1111
1111
1111
1111
1111
1111
1111
1111
1111
1111
1111
1111
1111
1111
1111
1111
1111
0111
0000
0000
0000
0000
0000
0000
0000
0000
0000
0000
0000
0000
0000
0000
0000
0000
0000
0000
0000
0000
0000
0000
0000
0000
0000
0000
0000
0000
0000
,
1001
0000
0000
0010
0100
0000
1000
0000
0010
0001
0000
0000
1100
0000
0000
0010
0001
0000
0001
0000
0100
1000
0000
0000
0000
0000
0000
0100
1000
0000
1000
0000
0001
0001
0000
0000
0000
0000
0000
0010
1000
0000
0001
0000
0010
1000
0000
0000
,
0101
0000
0000
0010
1000
0000
0001
0000
0100
0010
0000
0000
1010
0000
0000
0001
1000
0000
0100
0000
0100
0010
0000
0000
1001
0000
0000
0000
0000
0000
0000
0000
0000
2012
0000
0000
3123
0000
0000
2031
0000
0000
3122
0000
0000
2030
0000
0000
,
0203
3302
0223
0332
0223
2332
0223
3332
2223
3332
0000
1223
0332
2203
3310
0000
,
0122
0030
1203
0302
2203
3320
0032
1223
0300
0000
2032
3223
0332
2203
3320
0231
0320
2030
3020
0032
1103
2201
3320
0031
,
0220
0332
2203
3312
2203
3312
2223
3332
2203
3302
0203
0312
2203
3302
2203
3020
0332
2203
3312
2203
3322
2233
3322
2030
,
3223
0332
2223
3332
2203
3322
2233
3310
1111
0111
0000
0000
0000
0022
0033
0111
0000
2222
3333
1110
0221
0330
0020
0030
,
0000
0000
0000
0000
0000
0000
0000
0000
0222
0000
0000
0000
0000
0000
0000
0000
0333
0000
0000
0000
0000
0000
0000
0000
0100
0000
0000
0000
0000
0000
0000
0000
2000
0000
0000
0000
0000
0000
0000
0000
3020
0000
0000
0000
0000
0000
0000
0000
2231
0000
0000
0000
0000
0000
0000
0000
3312
0000
0000
0000
0000
0000
0000
0000
2223
0000
0000
0000
0000
0000
0000
0000
3332
0000
0000
0000
0000
0000
0000
0000
2223
0000
0000
0000
0000
0000
0000
0000
3302
0000
0000
0000
0000
0000
0000
0000
2233
0000
0000
0000
0000
0000
0020
0000
3300
0000
0000
0000
2032
0000
0000
0000
0000
0000
3223
0000
0000
0000
0000
0000
0332
0000
0000
0000
1120
0000
0003
0000
2032
0000
0000
0000
0203
0000
0000
0000
3322
0000
2000
0000
0033
3122
0000
0000
2030
0000
0000
0223
0000
0000
3302
0000
0000
2033
0000
0000
0220
0000
0000
3332
0000
0000
2223
0000
0000
3332
0000
0000
2003
0000
0000
3020
0000
0000
2032
0000
0000
0223
0000
0000
3332
0000
0000
2203
0000
0000
3320
0000
0000
2032
0000
0000
,
3223
0332
2000
3223
0332
1223
0332
2203
3312
2003
3220
0332
1223
0302
2233
3020
0332
1123
0032
1223
0332
0223
0300
2031
3122
0030
0123
0032
2203
3302
0203
0302
2223
3302
2230
3023
0332
2223
3332
0000
1223
0332
2223
3332
2203
3320
2031
0020
3000
2231
0020
3332
2003
3020
0032
2223
3332
2203
0020
3332
2203
3312
2203
3302
,
2223
0000
0000
0000
3300
0000
0000
0000
2030
0000
0000
0000
3020
0000
0000
0000
0002
0000
0030
0000
0000
0000
0000
0000
2223
0000
0000
0000
0000
0000
0000
0000
3302
0000
0000
0000
0000
0000
0000
0000
2233
0000
0000
0000
0000
0000
0000
0000
3020
0000
0000
0000
0000
0000
0000
0000
0332
0000
0000
0000
0000
0000
0000
0000
2223
0000
0000
0000
0000
0000
0000
0000
3300
0000
0000
0000
0000
0000
0000
0000
0032
0000
0000
0000
0000
0000
0000
0000
0223
0000
0000
0000
0000
0000
0000
0000
0302
0000
0000
0000
0000
0000
0000
0000
0030
0000
0000
0000
0000
0000
0000
0000
2223
0000
0000
0000
0000
0000
0000
0000
3302
0000
0000
0000
0000
0000
0000
0000
0033
0000
0000
0000
0000
0000
0000
0000
0100
0000
0000
0000
0000
0000
0000
0000
0002
0000
0000
0000
0000
0000
0000
0000
0203
0000
0000
0000
0000
0000
0000
0000
0320
0000
0000
0000
0000
0000
0000
0000
0030
0000
0000
0000
0000
0000
0000
0000
0100
0000
0000
0000
0000
0000
0000
0000
0000
0000
0000
0000
0000
0000
0000
0000
,
0222
0000
0333
0000
0111
0000
0111
0000
0112
0000
2203
0000
3302
0000
2223
0000
3332
0000
0000
0000
1103
0000
0221
0000
0302
0000
0030
0000
1203
0000
0322
0000
0003
0032
0000
0000
0003
0000
0000
0120
0000
0000
0032
0000
0000
2223
0000
0000
,
3332
2223
3332
2203
3302
0203
0312
2223
3332
0003
1100
1102
2203
3312
2203
3322
,
0030
0000
0000
0223
0000
0000
0332
0000
0000
2223
0000
0000
3332
0000
0000
2203
0000
0000
3302
0000
0000
0223
0000
0000
0300
0000
0000
0032
0000
0000
0223
0000
0000
0332
0000
0000
2223
0000
0000
3330
0100
0000
0010
0000
0001
0000
1000
0000
,
0100
0010
0001
1000
0100
0010
0001
0010
0100
1000
0001
0010
0100
1000
0001
0010
0100
1000
0001
0010
0100
1000
0001
0100
,
0010
1000
0100
0010
1000
0001
0100
0010
1000
0001
0010
0100
0001
1000
0120
0030
1112
1123
0032
1223
0332
1223
0332
2203
,
3300
1220
0300
2030
3200
0300
1200
0302
0200
0303
0000
0000
0000
0111
2000
3000
0020
0032
0120
0000
2203
3330
0120
2032
,
3123
0032
0223
0330
0000
0000
0000
1010
1010
0220
0330
1110
0220
0330
0110
0000
0220
0330
0110
0000
0220
0330
0110
0000
,
0000
0220
0330
0210
2302
3003
0001
0000
2002
3003
1001
2002
3003
2000
3020
0031
0220
2332
3223
2332
0223
3332
2203
0312
,
0203
3020
2332
0203
3312
2223
0302
0030
3223
0332
0000
0223
0332
0203
0302
1223
0332
2203
3302
0223
0300
0032
0223
0332
,
1223
0302
2033
3220
0332
2223
3330
0000
0000
0000
1000
0000
0001
0000
1000
0000
0001
0000
1000
0000
0001
0000
1001
0000
,
1001
1000
0100
0010
0001
1000
0100
0020
0032
0013
0100
1000
0001
0010
0100
1000
0100
0010
1000
0001
0100
0010
1000
0001
1221
0332
0023
0030
1122
0030
1223
0332
,
0223
0000
0000
0000
0000
0000
0332
0000
0000
0000
0000
0000
0223
0000
0000
0000
0000
0000
0332
0000
0000
0000
0000
0000
2003
0000
0000
0000
0000
0000
3002
0000
0000
0000
0000
0000
2203
0000
0000
0000
0000
0000
3020
0000
0000
0000
0000
0000
2332
0000
0000
0000
0000
0000
0223
0000
0000
0000
0000
0000
3332
0000
0000
0000
0000
0000
0223
0000
0000
0000
0000
0000
0330
0000
0000
0000
0000
0000
0000
0000
0000
0000
0000
0000
2222
0000
0000
0000
0000
0000
3333
0000
0000
0000
0000
0000
1110
0000
0000
0000
0000
0000
1110
0000
0000
0000
0000
0000
0000
0000
0000
0000
0000
0000
1000
0000
0000
0000
0000
0000
0022
0000
0000
0000
0000
0000
0003
0000
0000
0000
0000
0000
2231
0000
0000
0000
0000
0000
3322
0000
0000
0000
0000
0000
2033
0000
0000
0000
0000
0000
3022
0000
0000
0000
0000
0000
2033
0000
0000
0000
0000
0000
3020
0000
0000
0000
0000
0000
2231
0000
0000
0000
3320
0000
0000
0000
2030
0000
0000
0000
3222
0000
0000
0000
2330
0000
0000
0000
0223
0000
0000
0000
,
3332
2203
3302
0223
0000
2330
3122
2030
0223
3332
2203
3320
2030
3222
0330
1123
2032
0203
3310
0000
2112
0203
3310
0000
1110
0000
1122
2030
3023
0031
0020
2032
0223
3332
2203
3312
2003
3110
0000
1220
0332
0223
2332
0223
0332
3223
0302
0033
0220
2331
0200
3302
2223
3332
2003
3020
2231
3320
2032
0203
3312
2203
3312
2203
,
3320
0030
0120
0032
2223
3330
0000
2122
3030
2203
3302
2223
0332
3223
0332
2223
3330
2000
3012
2203
3020
0332
0223
0332
0223
0332
0003
0201
2020
3332
0223
0330
1122
0030
2223
3330
0200
1320
2230
3322
2030
3223
0332
2203
3302
2203
3020
0332
2003
3000
2221
3302
0030
2223
0332
0203
3322
2030
0223
3332
2203
3320
0032
0003
,
1111
1111
1111
1111
,
1111
1111
1111
1111
,
1111
1111
1111
1111
,
1111
1111
1111
1111
,
1111
1111
1111
1111
,
1111
1111
1111
1111
,
1111
1111
1111
1111
,
1111
1111
1111
1111
,
1111
1000
0100
0010
0001
0000
0000
0100
0010
1000
0001
0000
2211
3312
2223
3300
2230
3312
2203
3302
2223
3302
2233
3312
,
2223
3330
0000
1101
1102
1023
0032
2223
3332
1223
0332
2223
3332
2223
3332
2203
3302
2023
3002
2233
3312
0000
1223
0332
,
1123
0032
2223
3332
2203
3302
0223
0332
2003
3000
0000
2222
3333
1112
2203
3312
2223
3332
0223
2332
0223
3332
0223
2332
,
0203
0000
0000
0000
0000
0000
0000
0000
3302
0000
0000
0000
0000
0000
0000
0000
2203
0000
0000
0000
0000
0000
0000
0000
3300
0000
0000
0000
0000
0000
0000
0000
2200
0000
0000
0000
0000
0000
0000
0000
3312
0000
0000
0000
0000
0000
0000
0000
2223
0000
0000
0000
0000
0000
0000
0000
3330
0000
0000
0000
0000
0000
0000
0000
2200
0000
0000
0000
0000
0000
0000
0000
3312
0000
0000
0000
0000
0000
0000
0000
2223
0000
0000
0000
0000
0000
0000
0000
3332
0000
0000
0000
0000
0000
0000
0000
2203
0000
0000
0000
0000
0000
0000
0000
3312
0000
0000
0000
0000
0000
0000
0000
2203
0000
0000
0000
0000
0000
0000
0000
3020
0000
0000
0000
0000
0000
2002
0000
0330
0000
0000
0000
0223
0000
0000
0000
0000
0000
3332
0000
0000
0000
0000
0000
2223
0000
0000
0000
0000
0000
3300
0000
0000
0000
0000
0000
2031
0000
0000
0000
0000
0000
3120
0000
0000
0000
0000
0000
0032
0000
0000
0000
0000
0000
0023
0000
0000
0000
0000
0000
2032
0000
0000
0000
0000
0000
0223
0000
0000
0000
0000
0000
,
3302
2033
0220
3302
0033
2220
3332
2003
3120
2030
0220
3332
2223
3332
2223
3332
2223
3300
2032
0223
3332
2023
3000
2232
0023
3332
2000
0223
3332
2203
3310
0002
,
2000
3223
0302
2233
3320
0032
2203
3322
2030
0223
3332
2003
3022
0030
2223
0330
0000
3022
2233
3320
2032
0223
3332
2203
3312
0200
0023
0332
2223
3302
2233
3310
,
2200
0000
0000
0000
0000
0000
3320
0000
0000
0000
0000
0000
2030
0000
0000
0000
0000
0000
3112
0000
0000
0000
0000
0000
0000
0000
0000
0000
0000
0000
2223
0000
0000
0000
0000
0000
3332
0000
0000
0000
0000
0000
1123
0000
0000
0000
0000
0000
0032
0000
0000
0000
0000
0000
2203
0000
0000
0000
0000
0000
3322
0000
0000
0000
0000
0000
0030
0000
0000
0000
0000
0000
0223
0000
0000
0000
0000
0000
0332
0000
0000
0000
0000
0000
2203
0000
0000
0000
0000
0000
3312
0000
0000
0000
0000
0000
2223
0000
0000
0000
0000
0000
3332
0000
0000
0000
0000
0000
2203
0000
0000
0000
0000
0000
3302
0000
0000
0000
0000
0000
2023
0000
0000
0000
0000
0000
3002
0000
0000
0000
0000
0000
2230
0000
0000
0000
0000
0000
3023
0000
0000
0000
0000
0000
0332
0000
0000
0000
0000
0000
2203
0000
0000
0000
0000
0000
3322
0000
0000
0000
0000
0000
0233
0000
0000
0000
0000
0000
0020
0000
0000
0000
2001
0000
0330
0000
0200
0000
0000
0000
3322
0000
0000
0000
2030
0000
0220
0000
0003
3332
0000
0000
,
2223
3302
2233
0020
3332
2223
3332
2000
3123
2032
0203
3322
2030
0223
3000
0300
1102
2030
0203
3302
2223
3000
0332
2000
0000
3000
0003
0000
0022
0033
0111
0000
0000
0000
0022
0033
1011
0111
0200
0300
1100
1100
0000
0000
2022
3033
0000
2222
3333
1111
0222
0333
0111
2000
3222
0333
1111
1020
0202
0333
0002
1203
0302
0003
,
0002
2203
3302
2000
0203
3322
2233
3322
0030
0223
2332
0203
3022
0330
2223
3330
2000
3120
2032
0203
3322
2030
3223
0332
2203
3312
0000
1223
0332
2203
3312
0000
0003
0000
0000
0000
0000
0000
0000
0000
0000
0000
0000
0000
0000
0000
0000
0000
0000
0000
0000
0000
0000
0000
0000
0000
0000
0000
0000
0000
0000
0000
0000
0000
,
0000
0000
0000
0000
0000
0000
0000
0000
0000
0000
0000
0000
0000
0000
0000
0000
0000
0000
0000
0000
0000
0000
0000
0000
0000
0000
0000
0000
0000
0000
0000
0000
0000
0000
1111
1111
1111
1111
1111
1111
1111
1111
1111
1111
1111
1111
1111
0111
1111
1111
0111
0111
1111
0111
0111
1111
0111
0111
0111
0111
0100
0100
0110
0010
,
0110
1111
0111
0111
0111
0111
0111
0111
0111
0111
1111
0111
0111
1111
1111
1111
0000
0000
0000
0000
0000
0000
0000
0000
0000
0000
0012
2223
3332
1023
2202
3333
0111
0011
0000
0000
0000
2221
3330
0002
0223
0330
0102
2223
3302
2233
3322
2233
3322
0030
0123
2030
3122
2030
3223
0332
0003
0000
0000
0000
2010
3200
1322
2033
,
3200
0320
0030
2222
0330
3003
1222
0333
0011
0000
0210
0320
2130
3211
1300
0000
0202
1323
0030
0220
2330
3000
1222
2333
3020
2030
3000
2200
3000
1322
0033
0110
0000
0101
0020
2030
3000
0022
0033
0220
2330
3000
2000
3200
1320
0130
1202
0003
1300
0000
1002
0003
1220
2330
3200
2300
3000
1000
2000
3222
2333
3222
0333
2202
,
3300
0000
1220
2330
3220
2330
3220
2330
3020
2030
3200
2320
3200
2330
3200
2300
0000
3000
2003
3220
2000
0330
3222
2333
3220
2330
3221
2330
3222
2333
3100
0000
0101
0000
0210
0300
2120
0030
3110
1220
2330
3020
2030
3000
2000
3020
2132
0003
0222
0330
3220
2333
3000
2000
3022
0000
0233
0310
0220
1332
0220
1333
0022
0030
,
0120
0030
2013
3000
0220
2330
3000
2000
3000
1220
2330
3110
0000
2010
0000
0002
3000
0000
2113
3020
0030
2110
3002
2103
3220
0330
0220
0330
2110
3200
0302
0220
0330
2113
3000
2100
3220
1331
2200
3322
2133
3022
2033
3200
1300
0000
1222
0330
0020
0030
0020
0030
0000
0003
0022
0033
0000
1111
1011
0000
2220
3330
0000
2222
,
3333
1110
0021
0030
0011
0001
0000
2222
3333
2202
3303
1001
2202
3303
1101
1111
2000
3000
0000
0000
0000
1111
1111
0110
0000
0000
0000
0000
0000
0000
0000
0000
0000
0000
0000
0000
0000
0000
0000
0000
0000
0000
0000
0000
0000
0000
0000
0000
0000
0000
0000
0000
0000
0000
0000
0000
0000
0000
0000
0000
0000
0000
0000
0000
,
0000
0000
0000
0000
0000
0000
0000
0000
0000
0000
1000
0100
0010
0001
1122
2233
3322
2033
3022
0030
0023
0032
0223
2332
0223
3332
2203
3302
2223
3332
1203
0302
,
2203
3312
2203
3322
0030
1203
0302
0223
2331
3120
2030
3222
0330
0223
0332
2203
3300
0221
0332
2203
3300
0020
0000
2230
3302
2203
3320
2031
3220
0332
0123
0032
,
2223
3332
0223
0332
0223
0332
0223
0302
1030
0023
2230
3300
0021
0000
0032
0223
2332
0203
3312
0203
0312
2003
0020
3032
0203
2302
0223
3332
2203
3312
2203
3310
,
2200
3320
0032
2223
3332
0203
0312
2003
0220
3332
2223
3302
2233
3322
0030
2223
3332
2223
3332
0000
0223
2332
0223
3300
2032
0223
3332
2223
3302
2233
3020
0332
,
2223
3332
2203
3322
2233
0020
3332
2223
3332
0223
0302
2230
0023
3332
2203
3020
0332
2223
3332
2203
3020
2332
0223
3332
2000
0223
3332
0223
0000
0332
2203
0320
,
3032
2203
3322
0030
0223
0332
2003
3220
0332
0000
0223
2332
0203
3302
2223
0300
3032
2203
3302
2000
3013
0002
2223
3330
2002
0213
3302
2203
3020
2332
0223
3332
,
0003
2200
3312
0200
0023
0332
2000
3123
0002
2233
3020
0332
2223
3332
2000
0003
3022
2030
0223
3300
2030
0200
3302
2003
3022
2000
0033
3002
0023
2032
0003
3002
,
2223
3332
0203
0302
2003
3000
0022
2033
3010
0002
1123
0032
2203
3302
2223
3332
2000
0223
3332
0223
0302
2233
3020
0332
2223
3332
2203
3322
0030
2223
0332
3223
,
0332
2003
0000
3002
2003
0220
3332
2223
3332
2223
0000
0332
3123
0032
2203
3320
0032
2203
3322
0030
2223
3332
2223
3332
0003
0220
0332
2203
3302
2000
3003
0020
,
2000
0031
3220
0332
2223
3302
0030
0223
0332
0203
0312
2003
0220
3302
2030
0223
3332
0223
0332
2003
0000
3000
2000
0200
3322
2030
0223
3332
2223
3302
2030
0223
,
3332
2003
3020
2231
0020
3332
2023
0030
3220
0000
2332
0223
3332
0220
1000
0330
2223
3332
0000
0223
2332
0000
3223
0302
2233
3020
0332
2223
3302
0030
2223
3000
,
0332
2223
3300
0030
2000
3022
2030
0203
3310
0000
0220
2330
3122
0030
1223
0332
2203
3322
2233
3322
0030
0203
0302
0003
0100
0000
2220
3302
0030
0123
0032
0123
,
0032
2223
3332
2223
3000
0332
2203
3320
2030
0220
3332
0223
2332
0203
3322
2233
3020
0330
1222
0330
2223
3330
0000
0000
0000
0000
0000
0000
0000
0000
0000
0000
,
0000
0211
2312
0203
3302
0223
0332
0223
0332
0023
2232
3313
2000
3112
2003
3122
0030
0123
0032
2223
3332
1123
0032
2223
3332
1223
0332
0223
0332
0003
2201
3322
0030
1113
0000
0000
0000
0000
0000
0000
0000
0000
0000
0000
0000
0000
0000
0000
0000
0000
0000
0000
0000
0000
0000
0000
0000
0000
0000
0000
0000
0000
0000
0000
,
1111
1111
1111
1111
0111
0111
0111
1111
1111
1111
0000
1001
1111
1111
1111
0111
0111
1000
1111
1111
0111
0001
0010
0111
1110
0111
0111
1111
0111
0011
1111
1111
1111
0111
1110
0111
0111
0111
0111
1111
1111
0111
0111
1111
1111
1111
1111
0111
0001
2001
3011
0111
1111
0111
0111
1111
1111
0111
0111
1111
0111
1111
1111
0111
,
0111
0111
1110
1111
1111
1111
0111
0011
0100
0111
1111
0001
1111
0000
0011
1111
0010
0111
0111
1111
0011
0111
0111
1111
0111
0111
0111
0111
0111
0111
0111
0111
0111
0011
0111
0000
0000
0000
0000
0000
0000
0000
0000
0000
0000
0000
0000
0000
0000
0000
0000
0000
0000
0000
0000
0000
0000
0000
0000
0000
0000
0000
0000
0000
,
0000
0000
0000
0000
0000
0000
0000
0000
0000
0000
0000
0000
0000
0000
0000
0000
0000
0000
0000
0000
0000
0000
0000
0000
0000
0000
0000
0000
1111
1111
1111
1111
1111
1111
1111
1111
1111
1111
1111
1111
1111
1111
1111
1111
1111
1111
1111
1101
0100
0000
0000
0000
0000
0000
0000
0000
0000
0000
0000
0000
0000
0000
0000
0000
,
2222
0000
0000
0000
,
0000
0000
0000
0000
,
3333
0000
0000
0000
;
